Most popular

2014 toyota tundra crewmax owners manual

Excessive corrosion OF THE rear cross member MAY cause THE separation OF THE spare perfectly yourself matthew kelly epub tire stowed under THE truck BED which would presenoad hazard that could causrash.Air conditioning and audio systems, as well as other in- terior features for


Read more

2002 cadillac escalade service manual

Most of the criticism came from its room space, second-row seating, the CUE media system, stopping, stiff road handling, and its redesign, calling it the worst in class." eg 2013 Cadillac Escalade Premium 4WD Used Cars in Huntington, WV 25705 Great Deal 3,250 below


Read more

Vlc player for windows 7 torrent

A fix for this issue is already available in VLC.0.4.To download the sources or the Windows executable of this new version, go to the streaming page.VideoLAN at Linux Expo Paris VideoLAN will have a booth at Linux Expo Paris 2003 (4-5-6 February 2003 at


Read more

Victor carlsonthe great crack in the earth





While interest in the band never completely waned, it took the likes of Sunn 0) and other big feedbacking drone worshipers to bring it to fruition.
Track ford falcon au service manual pdf quality 100.0, test CRC C5D9D02E, copy CRC C5D9D02E.
Make use of C2 pointers :.
Wav" wave track 04 audio title "Land of Some Other Order" performer "Earth" index 01 00:00:00 file "05 - Plague of Angels.Wav Peak level.7 Extraction speed.8 X Track quality 100.0 Test CRC 0726E268 Copy CRC 0726E268 Accurately ripped (confidence 1) 7FB1AE92 (AR v1) Copy OK Track 4 Filename C:EAC RipsEarth - The Bees Made Honey In The Lion's Skull Japan (2008) dymc-055 flac04.Accurately ripped (confidence 1) 4B0D9F75 (AR v1).TOC of the extracted CD, track Start Length Start sector End sector :00.00 5:35.Wav Peak level.7 Extraction speed.8 X Track quality 100.0 Test CRC 366EFF21 Copy CRC 366EFF21 Accurately ripped (confidence 1) 0090E40F (AR v1) Copy OK Track 6 Filename C:EAC RipsEarth - The Bees Made Honey In The Lion's Skull Japan (2008) dymc-055 flac06.Ouroboros Is Broken (5:35).In 2005, Carlson's new Earth returned with Hex: Or Printing in the Infernal Method, a record that was less deafening, but strangely and hypnotically beautiful nonetheless, taking as a primary inspiration the spaghetti Western soundtracks of Ennio Morricone as a cue to create a new.Cracks in the earth blacken the sea.
Wav" wave track 03 audio title "The Felon Wind" performer "Earth" index 01 00:00:00 file "04 - Land of Some Other Order.EAC extraction logfile from.Reverb, controlled feedback, detuned drone, and high-pitched whine all gradually flood the foreground while the bass and drums hold the line and simultaneously make the tempo nearly unbearable.The Wurlitzer paints the ground between the front-line instruments and the rhythm section, and hints of a lyric statement emerge, fade, disappear, and mutate into others - very, very slowly.It's odd to think that a band around this long is finally reaching its peak rather than trying to hold on to past glories.The front-line complexity reaches its zenith in the middle of the record on "Engine of Ruin where Frisell gets to work his magic in concert with Carlson playing an octave apart.Gap handling : Appended to previous track.Read mode : Secure, utilize accurate stream : Yes, defeat audio cache : Yes.Long departed we're so short sighted.



Wav Peak level.7 Extraction speed.3 X Track quality 100.0 Test CRC FDD14788 Copy CRC FDD14788 Accurately ripped (confidence 1) D8036175 (AR v1) Copy OK Track 5 Filename C:EAC RipsEarth - The Bees Made Honey In The Lion's Skull Japan (2008) dymc-055 flac05.
It's a record that gets inside your body as well as your head and won't let.
The final two cuts, "Hung from the Moon" and the title track, are so deeply atmospheric and beautifully arrayed that they need to be heard rather than discussed - except to say that the latter is actually Earth's attempt at a shuffle, but.


Sitemap